<?xml version="1.0" standalone="no"?>
<!DOCTYPE svg PUBLIC "-//W3C//DTD SVG 1.1//EN" "http://www.w3.org/Graphics/SVG/1.1/DTD/svg11.dtd" >
<svg>
<metadata>
Created by FontForge 20090622 at Thu Oct 25 03:53:37 2018
 By deploy user
Copyright 2012--2014 for Latin Modern Math OTF by B. Jackowski, P. Strzelczyk and P. Pianowski (on behalf of TeX users groups). This work is released under the GUST Font License -- see http://tug.org/fonts/licenses/GUST-FONT-LICENSE.txt for details.
</metadata>
<defs>
<font id="LatinModernMath-Regular" horiz-adv-x="278" >
  <font-face 
    font-family="Latin Modern Math"
    font-weight="400"
    font-stretch="normal"
    units-per-em="1000"
    panose-1="2 0 5 3 0 0 0 0 0 0"
    ascent="806"
    descent="-194"
    x-height="431"
    cap-height="683"
    bbox="-40 -3060 2517 3560"
    underline-thickness="40"
    underline-position="-200"
    unicode-range="U+0020-U+007E"
  />
<missing-glyph horiz-adv-x="280" 
 />
    <glyph glyph-name=".notdef" horiz-adv-x="280" 
 />
    <glyph glyph-name=".null" horiz-adv-x="0" 
 />
    <glyph glyph-name="nonmarkingreturn" horiz-adv-x="333" 
 />
    <glyph glyph-name="space" unicode=" " horiz-adv-x="332" 
 />
    <glyph glyph-name="exclam" unicode="!" 
d="M192 665l-39 -456q-1 -22 -14 -22q-6 0 -9 3t-3.5 7t-1.5 13l-39 455q0 23 16 37t37 14t37 -14t16 -37zM192 53q0 -22 -15.5 -37.5t-37.5 -15.5t-37.5 15.5t-15.5 37.5t15.5 37.5t37.5 15.5t37.5 -15.5t15.5 -37.5z" />
    <glyph glyph-name="quotedbl" unicode="&#x22;" horiz-adv-x="374" 
d="M174 670l-22 -247h-26l-22 247q-1 15 9.5 25t25.5 10t25.5 -10t9.5 -25zM270 670l-22 -247h-26l-22 247q-1 15 9.5 25t25.5 10t25.5 -10t9.5 -25z" />
    <glyph glyph-name="numbersign" unicode="#" horiz-adv-x="833" 
d="M776 153q0 -20 -33 -20h-224l-81 -303q-2 -8 -3.5 -11.5t-6.5 -8t-12 -4.5q-8 0 -14 6t-6 14q0 10 4 18l78 289h-188l-81 -303q-2 -8 -3.5 -11.5t-6.5 -8t-12 -4.5q-8 0 -14 6t-6 14q0 10 4 18l78 289h-160q-33 0 -33 20t34 20h171l40 154h-211q-34 0 -34 20t33 20h224
l81 303q2 8 3.5 11.5t6.5 8t12 4.5q8 0 14 -6t6 -14q0 -10 -4 -18l-78 -289h188l81 303q2 8 3.5 11.5t6.5 8t12 4.5q8 0 14 -6t6 -14q0 -10 -4 -18l-78 -289h160q33 0 33 -20t-34 -20h-171l-40 -154h211q34 0 34 -20zM530 327h-188l-40 -154h188z" />
    <glyph glyph-name="dollar" unicode="$" horiz-adv-x="500" 
d="M443 195q0 -79 -50.5 -138.5t-127.5 -66.5v-46h-31v45q-88 6 -133 60.5t-45 128.5q0 17 6 28.5t15 15.5t14.5 5.5t10.5 1.5q19 0 32.5 -13t13.5 -33t-13 -33t-33 -13q-8 0 -16 2q10 -50 47.5 -82t100.5 -36v298q-33 8 -48 13t-36 17t-39 30q-20 19 -37.5 54t-17.5 80
q0 72 49 128t129 63v46h31v-45q83 -4 130.5 -53t47.5 -123q0 -22 -12 -34.5t-20 -14t-14 -1.5q-18 0 -32 12t-14 34q0 21 13 33.5t33 12.5q8 0 16 -2q-12 44 -49.5 72.5t-98.5 31.5v-270q31 -8 46 -13t37 -18t41 -34q9 -9 19 -23t22.5 -48.5t12.5 -71.5zM392 165
q0 14 -3.5 30.5t-14.5 41.5t-39 45t-70 29v-290q57 7 92 49t35 95zM234 411v262q-57 -6 -92 -44t-35 -86q0 -10 1 -19.5t8.5 -28t19.5 -33t37.5 -29.5t60.5 -22z" />
    <glyph glyph-name="percent" unicode="%" horiz-adv-x="833" 
d="M693 730q0 -6 -8 -18l-506 -753q-11 -15 -20 -15q-8 0 -14 6t-6 14q0 7 9 20l449 669l-1 1q-52 -35 -133 -35q-77 0 -151 42q21 -52 21 -113q0 -84 -37.5 -142.5t-92.5 -58.5q-59 0 -103 57t-44 145q0 86 44 143.5t103 57.5q36 0 72 -32q81 -77 187 -77q120 0 190 95
q12 14 21 14q8 0 14 -6t6 -14zM776 145q0 -84 -37.5 -142.5t-92.5 -58.5q-59 0 -103 57t-44 145q0 86 44 143.5t103 57.5q54 0 92 -58.5t38 -143.5zM308 549q0 76 -31.5 127.5t-72.5 51.5q-9 0 -17.5 -2.5t-21.5 -13t-23 -28.5t-17 -53.5t-7 -82.5t7 -82t17 -53t23.5 -28.5
t22 -13t16.5 -2.5q41 0 72.5 51t31.5 129zM751 146q0 76 -31.5 127.5t-72.5 51.5q-9 0 -17.5 -2.5t-21.5 -13t-23 -28.5t-17 -53.5t-7 -82.5t7 -82t17 -53t23.5 -28.5t22 -13t16.5 -2.5q41 0 72.5 51t31.5 129z" />
    <glyph glyph-name="ampersand" unicode="&#x26;" horiz-adv-x="778" 
d="M727 400q-33 0 -55 -6t-39 -22t-27 -29.5t-28 -44.5q-85 -146 -132 -200q75 -89 138 -89q40 0 75 29t37 83h25q-1 -63 -42 -103t-99 -40q-89 0 -176 76q-85 -76 -181 -76q-75 0 -128 43t-53 107q0 37 15.5 61.5t55.5 65.5l91 97q-41 104 -41 203q0 74 42 117.5t94 43.5
q25 0 43.5 -13.5t27 -34.5t12.5 -41t4 -40q0 -31 -22 -70.5t-42.5 -65t-57.5 -66.5q20 -52 60 -117t66.5 -100t39.5 -50q64 79 143 218q6 18 6 20q0 19 -18.5 31.5t-52.5 12.5v31q41 -3 122 -3l97 3v-31zM361 588q0 4 -0.5 11.5t-3.5 25.5t-8.5 32t-18 25.5t-29.5 11.5
q-30 0 -52.5 -29t-22.5 -87q0 -80 30 -169q105 114 105 179zM385 73q-39 39 -92 117q-46 66 -80 139q-48 -46 -68 -80t-20 -89q0 -32 8.5 -64t34 -59.5t63.5 -27.5q82 0 154 64z" />
    <glyph glyph-name="quotesingle" unicode="'" 
d="M174 670l-22 -247h-26l-22 247q-1 15 9.5 25t25.5 10t25.5 -10t9.5 -25z" />
    <glyph glyph-name="parenleft" unicode="(" horiz-adv-x="389" 
d="M332 -238q0 -10 -10 -10q-2 0 -6 2q-85 64 -150 196.5t-65 257.5v84q0 125 65 257.5t150 196.5q4 2 6 2q10 0 10 -10q0 -4 -4 -8q-76 -57 -124.5 -185t-48.5 -253v-84q0 -125 48.5 -253t124.5 -185q4 -4 4 -8z" />
    <glyph glyph-name="parenright" unicode=")" horiz-adv-x="389" 
d="M288 208q0 -125 -65 -257.5t-150 -196.5q-4 -2 -6 -2q-10 0 -10 10q0 4 4 8q76 57 124.5 185t48.5 253v84q0 125 -48.5 253t-124.5 185q-4 4 -4 8q0 10 10 10q2 0 6 -2q85 -64 150 -196.5t65 -257.5v-84z" />
    <glyph glyph-name="asterisk" unicode="*" horiz-adv-x="500" 
d="M436 428q-7 -12 -20 -15t-23 5l-131 96l17 -161q2 -14 -7 -23.5t-22 -9.5t-22 9.5t-7 23.5l17 161l-131 -96q-10 -8 -23 -5t-20 15q-7 11 -3 23.5t16 17.5l149 66l-149 66q-12 5 -16 17.5t3 24.5q7 11 20 14t23 -5l131 -96l-17 161q-2 14 7 23.5t22 9.5t22 -9.5t7 -23.5
l-17 -161l131 96q10 8 23 5t20 -14q7 -12 3 -24.5t-16 -17.5l-149 -66l149 -66q12 -5 16 -17.5t-3 -23.5z" />
    <glyph glyph-name="plus" unicode="+" horiz-adv-x="778" 
d="M722 250q0 -8 -6 -14t-14 -6h-293v-293q0 -8 -6 -14t-14 -6t-14 6t-6 14v293h-293q-8 0 -14 6t-6 14t6 14t14 6h293v293q0 8 6 14t14 6t14 -6t6 -14v-293h293q8 0 14 -6t6 -14z" />
    <glyph glyph-name="comma" unicode="," 
d="M203 1q0 -33 -8.5 -65t-20.5 -54.5t-25 -40t-23 -26t-14 -8.5q-10 0 -10 11q0 5 11 16q68 68 68 167l-2 15q-2 -1 -5 -3q-14 -13 -35 -13q-24 0 -38.5 16t-14.5 37q0 22 14.5 37.5t38.5 15.5q29 0 46.5 -28t17.5 -77z" />
    <glyph glyph-name="hyphen" unicode="-" horiz-adv-x="333" 
d="M276 187h-265v58h265v-58z" />
    <glyph glyph-name="period" unicode="." 
d="M192 53q0 -22 -15.5 -37.5t-37.5 -15.5t-37.5 15.5t-15.5 37.5t15.5 37.5t37.5 15.5t37.5 -15.5t15.5 -37.5z" />
    <glyph glyph-name="slash" unicode="/" horiz-adv-x="500" 
d="M445 730q0 -5 -1 -7l-349 -960q-5 -13 -19 -13q-8 0 -14 6t-6 14q0 5 1 7l349 960q5 13 19 13q8 0 14 -6t6 -14z" />
    <glyph glyph-name="zero" unicode="0" horiz-adv-x="500" 
d="M460 320q0 -146 -37 -226q-54 -116 -174 -116q-45 0 -90.5 23t-74.5 78q-45 83 -45 241q0 147 37 227q52 119 174 119q26 0 53 -7t61.5 -34t55.5 -71q40 -85 40 -234zM377 332q0 139 -10 195q-13 65 -48 91t-70 26q-13 0 -27 -4t-34 -15t-35.5 -39t-22.5 -70
q-8 -54 -8 -184q0 -151 11 -211q12 -65 45.5 -93t70.5 -28q40 0 73.5 30t43.5 95q11 64 11 207z" />
    <glyph glyph-name="one" unicode="1" horiz-adv-x="500" 
d="M419 0q-35 3 -162 3t-162 -3v31h32q63 0 78 9t15 39v518q-52 -26 -131 -26v31q120 0 182 64q17 0 20 -4t3 -22v-561q0 -30 14.5 -39t78.5 -9h32v-31z" />
    <glyph glyph-name="two" unicode="2" horiz-adv-x="500" 
d="M449 174l-28 -174h-371q0 18 1.5 23.5t9.5 13.5l192 214q105 118 105 221q0 67 -35 115t-99 48q-44 0 -81 -27t-54 -75q3 1 13 1q25 0 39 -15.5t14 -36.5q0 -27 -17.5 -40t-34.5 -13q-7 0 -16 1.5t-23 15.5t-14 39q0 70 53 125.5t134 55.5q92 0 152 -54.5t60 -139.5
q0 -30 -9 -57t-21 -48t-44 -54.5t-58 -57.5l-84 -75l-106 -103h180q88 0 95 8q10 14 22 89h25z" />
    <glyph glyph-name="three" unicode="3" horiz-adv-x="500" 
d="M457 171q0 -78 -61.5 -135.5t-151.5 -57.5q-83 0 -142.5 45t-59.5 112q0 30 17 44t39 14q23 0 39.5 -15t16.5 -41q0 -28 -19.5 -43.5t-46.5 -11.5q24 -40 68 -58t85 -18q43 0 78 37t35 128q0 77 -30 121.5t-89 44.5h-44q-15 0 -19.5 1.5t-4.5 9.5q0 10 15 12q15 0 39 3
q58 2 89 52q28 47 28 114q0 61 -29 86.5t-67 25.5q-35 0 -73.5 -14.5t-59.5 -47.5q62 0 62 -50q0 -22 -14 -36.5t-37 -14.5q-22 0 -36.5 14t-14.5 38q0 57 51 96.5t126 39.5q74 0 129 -39t55 -99q0 -59 -39 -107.5t-101 -68.5q76 -15 121.5 -66.5t45.5 -114.5z" />
    <glyph glyph-name="four" unicode="4" horiz-adv-x="500" 
d="M471 165h-100v-87q0 -29 12 -38t64 -9h21v-31q-41 3 -136 3q-94 0 -135 -3v31h21q52 0 64 9t12 38v87h-266v31l307 469q8 12 20 12q11 0 13.5 -4.5t2.5 -21.5v-455h100v-31zM300 196v373l-244 -373h244z" />
    <glyph glyph-name="five" unicode="5" horiz-adv-x="500" 
d="M449 201q0 -94 -65 -158.5t-153 -64.5q-80 0 -130.5 57t-50.5 126q0 30 16 41.5t33 11.5q23 0 36.5 -14.5t13.5 -34.5t-13.5 -34.5t-36.5 -14.5q-11 0 -17 2q13 -46 53.5 -79t93.5 -33q67 0 107 65q24 42 24 137q0 84 -18 126q-28 64 -85 64q-81 0 -129 -70q-6 -9 -13 -9
q-10 0 -12 5.5t-2 20.5v296q0 24 10 24q4 0 12 -3q63 -28 133 -28q72 0 136 29l8 3q10 0 10 -11q0 -4 -8 -15.5t-25 -26.5t-39 -29t-54 -23.5t-67 -9.5q-42 0 -85 13v-195q52 51 127 51q80 0 135 -64.5t55 -154.5z" />
    <glyph glyph-name="six" unicode="6" horiz-adv-x="500" 
d="M457 204q0 -97 -60.5 -161.5t-145.5 -64.5q-38 0 -72.5 16t-66.5 52t-51 105.5t-19 164.5q0 157 80 253.5t183 96.5q60 0 93.5 -30.5t33.5 -77.5q0 -26 -15 -37t-31 -11q-18 0 -32 12t-14 34q0 45 55 45q-26 40 -88 40q-19 0 -38.5 -5.5t-45 -24t-45 -48t-33 -84.5
t-13.5 -127v-24q41 99 125 99t142 -64t58 -159zM367 205q0 100 -18 137q-31 62 -93 62q-42 0 -71 -29t-40 -67.5t-11 -81.5q0 -98 18 -145q3 -8 9.5 -18.5t18 -24.5t30.5 -23t41 -9q67 0 99 65q17 36 17 134z" />
    <glyph glyph-name="seven" unicode="7" horiz-adv-x="500" 
d="M485 644q0 -23 -9 -35l-135 -190q-43 -60 -62 -171q-11 -74 -11 -164v-51q0 -55 -46 -55t-46 55q0 84 30 182.5t93 193.5l112 158h-207q-91 0 -98 -6q-10 -9 -25 -91h-25l33 206h25q3 -12 8 -17.5t33.5 -10t86.5 -4.5h243z" />
    <glyph glyph-name="eight" unicode="8" horiz-adv-x="500" 
d="M457 168q0 -80 -61.5 -135t-146.5 -55q-83 0 -145 48.5t-62 124.5q0 112 144 184q-62 42 -73 54q-44 49 -44 110q0 70 53 118.5t128 48.5q72 0 126 -41.5t54 -107.5q0 -93 -121 -155q80 -50 99 -71q49 -54 49 -123zM386 517q0 53 -40.5 88.5t-96.5 35.5q-55 0 -95.5 -29
t-40.5 -74q0 -48 50 -81l124 -80q99 58 99 140zM407 132q0 21 -7 39t-21 32.5t-22.5 21t-24.5 17.5l-123 78q-117 -65 -117 -169q0 -62 46.5 -103.5t111.5 -41.5q63 0 110 36t47 90z" />
    <glyph glyph-name="nine" unicode="9" horiz-adv-x="500" 
d="M457 329q0 -155 -75 -253t-176 -98q-64 0 -101.5 29t-37.5 79q0 26 14.5 37t31.5 11q18 0 32 -12t14 -34q0 -18 -11.5 -32t-40.5 -14q29 -36 98 -36q25 0 50 11.5t52 39.5t43.5 87t16.5 142v32q-40 -100 -125 -100q-84 0 -142 64.5t-58 158.5q0 53 15.5 89.5t48.5 72.5
q60 63 147 63q37 0 70 -15.5t64.5 -51t50.5 -105t19 -165.5zM365 421q0 98 -16 141q-30 79 -96 79t-100 -63q-21 -37 -21 -138q0 -99 18 -136q31 -63 93 -63q61 0 91.5 54.5t30.5 125.5z" />
    <glyph glyph-name="colon" unicode=":" 
d="M192 378q0 -22 -15.5 -37.5t-37.5 -15.5t-37.5 15.5t-15.5 37.5t15.5 37.5t37.5 15.5t37.5 -15.5t15.5 -37.5zM192 53q0 -22 -15.5 -37.5t-37.5 -15.5t-37.5 15.5t-15.5 37.5t15.5 37.5t37.5 15.5t37.5 -15.5t15.5 -37.5z" />
    <glyph glyph-name="semicolon" unicode=";" 
d="M192 378q0 -22 -15.5 -37.5t-37.5 -15.5t-37.5 15.5t-15.5 37.5t15.5 37.5t37.5 15.5t37.5 -15.5t15.5 -37.5zM195 3q0 -52 -19 -100.5t-38 -72t-26 -23.5q-10 0 -10 11q0 5 7 13q64 74 64 180q-9 -8 -26 -10q-3 -1 -8 -1q-25 0 -39 16t-14 37t14 37t39 16q56 0 56 -103z
" />
    <glyph glyph-name="less" unicode="&#x3c;" horiz-adv-x="778" 
d="M689 -9q11 -5 11.5 -16t-8.5 -18t-21 -2l-581 275q-13 6 -13 20t13 20l581 275q12 5 21 -2t8.5 -18t-11.5 -16l-548 -259z" />
    <glyph glyph-name="equal" unicode="=" horiz-adv-x="778" 
d="M722 347q0 -8 -6 -14t-14 -6h-626q-8 0 -14 6t-6 14t6 14t14 6h626q8 0 14 -6t6 -14zM722 153q0 -8 -6 -14t-14 -6h-626q-8 0 -14 6t-6 14t6 14t14 6h626q8 0 14 -6t6 -14z" />
    <glyph glyph-name="greater" unicode="&#x3e;" horiz-adv-x="778" 
d="M688 230l-581 -275q-12 -5 -21 2t-8.5 18t11.5 16l548 259l-548 259q-11 5 -11.5 16t8.5 18t21 2l581 -275q13 -6 13 -20t-13 -20z" />
    <glyph glyph-name="question" unicode="?" horiz-adv-x="472" 
d="M415 570q0 -62 -48 -98q-132 -98 -132 -223v-35q0 -11 -0.5 -15.5t-3.5 -8t-9 -3.5q-8 0 -10 4.5t-2 19.5v45q0 53 21 114t67 111q11 11 17 19.5t11.5 28t5.5 47.5q0 17 -0.5 27t-6.5 27t-16.5 27t-32.5 18t-53 8q-91 0 -131 -68q56 0 56 -45q0 -20 -12.5 -33t-33.5 -13
q-19 0 -32.5 12t-13.5 36q0 52 46.5 92.5t123.5 40.5q101 0 145 -41t44 -94zM275 53q0 -22 -15.5 -37.5t-37.5 -15.5t-37.5 15.5t-15.5 37.5t15.5 37.5t37.5 15.5t37.5 -15.5t15.5 -37.5z" />
    <glyph glyph-name="at" unicode="@" horiz-adv-x="778" 
d="M721 338q0 -45 -4 -78.5t-14 -65.5t-31 -49t-53 -17q-33 0 -63 17.5t-37 53.5q-51 -71 -132 -71q-79 0 -138.5 63.5t-59.5 155.5t59.5 155.5t138.5 63.5q81 0 137 -77q7 -8 23 -8h17q17 0 20.5 -3.5t3.5 -20.5v-241q0 -66 35 -66q24 0 39 14.5t22 43t9.5 56.5t2.5 68
q0 86 -28.5 155.5t-74.5 111t-99 63t-106 21.5q-125 0 -216 -97.5t-91 -238.5q0 -137 89 -236.5t223 -99.5q136 0 272 64q5 3 23 3h9q10 0 13.5 -0.5t6.5 -2.5t3 -7q0 -10 -56 -29.5t-90 -27.5q-94 -22 -180 -22q-146 0 -242 106.5t-96 251.5q0 149 97.5 253.5t235.5 104.5
q61 0 120 -25t106.5 -70t76.5 -116t29 -156zM519 262v170q0 21 -13 40q-46 72 -116 72q-55 0 -93.5 -57t-38.5 -140t39 -140t93 -57q67 0 115 69q14 21 14 43z" />
    <glyph glyph-name="A" unicode="A" horiz-adv-x="750" 
d="M717 0l-131 3q-108 0 -144 -3v31q83 0 83 30q0 2 -3 14l-53 153h-247l-46 -131q-2 -4 -2 -15q0 -21 19.5 -36t55.5 -15v-31l-115 3l-102 -3v31q89 2 112 67l207 598q4 12 8.5 16t15.5 4q6 0 9.5 -1t6 -4.5t3.5 -5.5t4 -9l216 -625q8 -25 24 -32.5t61 -7.5h18v-31z
M458 259l-113 325l-112 -325h225z" />
    <glyph glyph-name="B" unicode="B" horiz-adv-x="708" 
d="M651 183q0 -73 -63 -128t-160 -55h-392v31h24q54 0 66.5 9t12.5 38v527q0 29 -12.5 38t-66.5 9h-24v31h366q95 0 158.5 -51t63.5 -118q0 -55 -46.5 -99t-119.5 -58q83 -9 138 -59t55 -115zM527 514q0 49 -33 93.5t-99 44.5h-124q-34 0 -41.5 -7t-7.5 -33v-246h145
q77 0 118.5 46.5t41.5 101.5zM551 184q0 59 -36.5 109.5t-104.5 50.5h-188v-273q0 -26 7.5 -33t41.5 -7h125q72 0 113.5 47t41.5 106z" />
    <glyph glyph-name="C" unicode="C" horiz-adv-x="722" 
d="M665 233q0 -95 -73 -175t-188 -80q-142 0 -245 105.5t-103 258.5q0 151 103 257t245 106q44 0 83 -16t57 -30t44 -40l50 74q8 12 16 12t9.5 -4.5t1.5 -19.5v-237q0 -16 -2 -20t-14 -4q-10 0 -12 3t-4 14q-15 108 -75 172.5t-143 64.5q-24 0 -50.5 -5.5t-65 -26t-68 -54.5
t-51 -98t-21.5 -149q0 -84 21.5 -148.5t51 -98t68 -54t65.5 -26t51 -5.5q86 0 152 61t72 164q1 5 1 7t1 4.5t3.5 3.5t6.5 1q13 0 13 -17z" />
    <glyph glyph-name="D" unicode="D" horiz-adv-x="764" 
d="M707 336q0 -140 -89.5 -238t-216.5 -98h-366v31h24q54 0 66.5 9t12.5 38v527q0 29 -12.5 38t-66.5 9h-24v31h366q128 0 217 -102t89 -245zM607 336q0 152 -52 223q-67 93 -182 93h-100q-34 0 -41.5 -7t-7.5 -33v-541q0 -26 7.5 -33t41.5 -7h101q66 0 110.5 27t67.5 58
q55 75 55 220z" />
    <glyph glyph-name="E" unicode="E" horiz-adv-x="681" 
d="M652 258l-42 -258h-577v31h24q54 0 66.5 9t12.5 38v524q0 29 -12.5 38t-66.5 9h-24v31h563l28 -225h-25q-7 57 -16 90t-30.5 58.5t-57 35.5t-92.5 10h-129q-34 0 -41.5 -7t-7.5 -33v-240h90q69 0 88.5 24t19.5 93h25v-265h-25q0 68 -19.5 92.5t-88.5 24.5h-90v-267
q0 -26 7.5 -33t41.5 -7h133q43 0 74.5 5.5t53.5 19.5t37 30t25.5 45t16.5 56t13 71h25z" />
    <glyph glyph-name="F" unicode="F" horiz-adv-x="653" 
d="M610 455h-25q-7 57 -16 89.5t-29.5 58.5t-55 36t-90.5 10h-120q-34 0 -41.5 -7t-7.5 -33v-253h86q68 0 87 24.5t19 92.5h25v-265h-25q0 69 -19 93t-87 24h-86v-246q0 -21 3.5 -29t24.5 -13.5t67 -5.5h33v-31q-36 3 -168 3q-117 0 -152 -3v31h24q54 0 66.5 9t12.5 38v524
q0 29 -12.5 38t-66.5 9h-24v31h549z" />
    <glyph glyph-name="G" unicode="G" horiz-adv-x="785" 
d="M735 242q-48 0 -58.5 -7t-10.5 -37v-174q0 -23 -9 -23q-8 0 -31 22.5t-33 39.5q-24 -42 -76 -63.5t-111 -21.5q-144 0 -247 106t-103 258t103.5 257.5t244.5 105.5q35 0 65 -8t54 -24t36.5 -26.5t29.5 -27.5l50 74q8 12 16 12t9.5 -4.5t1.5 -19.5v-237q0 -16 -2 -20
t-14 -4q-10 0 -12 3t-4 14q-15 108 -75.5 172.5t-142.5 64.5q-24 0 -50.5 -5.5t-65.5 -26t-68.5 -54t-51 -97.5t-21.5 -149q0 -84 21.5 -148.5t51.5 -98t69.5 -54.5t67.5 -26.5t53 -5.5q17 0 37 3.5t50 14.5t49 37.5t19 65.5v64q0 30 -14.5 39t-78.5 9h-32v31q36 -3 161 -3
l122 3v-31z" />
    <glyph glyph-name="H" unicode="H" horiz-adv-x="750" 
d="M716 0q-35 3 -148 3q-112 0 -147 -3v31h24q54 0 66.5 9t12.5 38v262h-299v-262q0 -29 12.5 -38t66.5 -9h24v-31q-35 3 -148 3q-112 0 -147 -3v31h24q54 0 66.5 9t12.5 38v527q0 29 -12.5 38t-66.5 9h-24v31q35 -3 148 -3q112 0 147 3v-31h-24q-54 0 -66.5 -9t-12.5 -38
v-234h299v234q0 29 -12.5 38t-66.5 9h-24v31q35 -3 148 -3q112 0 147 3v-31h-24q-54 0 -66.5 -9t-12.5 -38v-527q0 -29 12.5 -38t66.5 -9h24v-31z" />
    <glyph glyph-name="I" unicode="I" horiz-adv-x="361" 
d="M333 0q-35 3 -153 3q-117 0 -152 -3v31h26q56 0 69 9t13 38v527q0 29 -13 38t-69 9h-26v31q35 -3 153 -3q117 0 152 3v-31h-26q-56 0 -69 -9t-13 -38v-527q0 -29 13 -38t69 -9h26v-31z" />
    <glyph glyph-name="J" unicode="J" horiz-adv-x="514" 
d="M465 652q-51 0 -64 -6t-13 -35v-444q0 -36 -1 -44q-9 -59 -60.5 -102t-125.5 -43q-67 0 -113.5 39t-46.5 95q0 30 17.5 44t38.5 14q22 0 39 -15t17 -41q0 -56 -64 -56q36 -58 110 -58q42 0 72.5 41t30.5 107v456q0 21 -4 29t-25 13.5t-69 5.5h-36v31q38 -3 168 -3l129 3
v-31z" />
    <glyph glyph-name="K" unicode="K" horiz-adv-x="778" 
d="M736 0l-115 3q-108 0 -143 -3v31q59 0 59 30q0 11 -15 34l-181 268l-116 -110v-175q0 -29 12.5 -38t66.5 -9h24v-31q-35 3 -148 3q-112 0 -147 -3v31h24q54 0 66.5 9t12.5 38v527q0 29 -12.5 38t-66.5 9h-24v31q35 -3 148 -3q112 0 147 3v-31h-24q-54 0 -66.5 -9
t-12.5 -38v-318l313 299q18 16 18 33q0 6 -2.5 12.5t-14 13.5t-29.5 7v31q34 -3 127 -3q59 0 85 3v-31q-83 -1 -142 -60l-180 -173l231 -340q21 -31 41.5 -39.5t63.5 -8.5v-31z" />
    <glyph glyph-name="L" unicode="L" horiz-adv-x="625" 
d="M582 258l-28 -258h-521v31h24q54 0 66.5 9t12.5 38v527q0 29 -12.5 38t-66.5 9h-24v31q35 -3 152 -3q132 0 168 3v-31h-33q-46 0 -67 -6t-24.5 -14t-3.5 -28v-533q0 -26 7.5 -33t41.5 -7h82q51 0 87.5 15t56 34t32.5 55t17 59t8 64h25z" />
    <glyph glyph-name="M" unicode="M" horiz-adv-x="917" 
d="M879 0q-37 3 -143 3q-107 0 -144 -3v31h24q54 0 66.5 9t12.5 38v574h-1l-246 -633q-7 -19 -18 -19q-12 0 -20 22l-241 622h-1v-539q0 -15 2 -24t10.5 -22.5t31.5 -20.5t59 -7v-31l-117 3l-117 -3v31q36 0 59 7t31.5 20.5t10.5 22.5t2 24v500q0 29 -12.5 38t-66.5 9h-24
v31h169q18 0 23 -3t12 -19l217 -560l219 563q5 14 9.5 16.5t23.5 2.5h169v-31h-24q-54 0 -66.5 -9t-12.5 -38v-527q0 -29 12.5 -38t66.5 -9h24v-31z" />
    <glyph glyph-name="N" unicode="N" horiz-adv-x="750" 
d="M716 652q-36 0 -59 -7t-31.5 -20.5t-10.5 -22.5t-2 -24v-552q0 -16 -2 -21t-12 -5q-7 0 -17 13l-408 600q-4 6 -10 12v-520q0 -15 2 -24t10.5 -22.5t31.5 -20.5t59 -7v-31l-117 3l-117 -3v31q36 0 59 7t31.5 20.5t10.5 22.5t2 24v522q0 14 -3.5 17.5t-20.5 5.5
q-30 2 -50 2h-29v31h170q14 0 18 -2t11 -11l353 -519v427q0 15 -2 24t-10.5 22.5t-31.5 20.5t-59 7v31l117 -3l117 3v-31z" />
    <glyph glyph-name="O" unicode="O" horiz-adv-x="778" 
d="M721 339q0 -151 -98 -256t-235 -105q-135 0 -233.5 104.5t-98.5 256.5q0 153 98 259.5t234 106.5q137 0 235 -107t98 -259zM618 353q0 73 -15.5 132t-40 94.5t-56 59t-61 32.5t-57.5 9q-35 0 -71.5 -15.5t-73.5 -50t-60.5 -102t-23.5 -159.5q0 -93 22 -164t57.5 -109.5
t73.5 -57t77 -18.5q38 0 75.5 18t73 56t58 109.5t22.5 165.5z" />
    <glyph glyph-name="P" unicode="P" horiz-adv-x="681" 
d="M624 497q0 -74 -68.5 -127.5t-159.5 -53.5h-169v-238q0 -29 12.5 -38t66.5 -9h24v-31q-35 3 -148 3q-112 0 -147 -3v31h24q54 0 66.5 9t12.5 38v527q0 29 -12.5 38t-66.5 9h-24v31h353q101 0 168.5 -55.5t67.5 -130.5zM521 497q0 22 -1 36t-9.5 39t-23.5 40.5t-47.5 27.5
t-77.5 12h-89q-34 0 -41.5 -7t-7.5 -33v-270h138q45 0 77.5 12.5t47.5 28t23.5 40.5t9.5 39t1 35z" />
    <glyph glyph-name="Q" unicode="Q" horiz-adv-x="778" 
d="M727 -10q0 -24 -5 -51t-17 -59t-37.5 -53t-61.5 -21q-27 0 -47 11.5t-31.5 25.5t-21 44t-13 49t-9.5 57q-48 -15 -95 -15q-137 0 -235 105t-98 256q0 153 98 259.5t234 106.5q137 0 235 -107t98 -259q0 -111 -56.5 -201t-146.5 -131q19 -51 40.5 -74.5t55.5 -23.5
t60.5 22.5t30.5 61.5q2 18 11 18q11 0 11 -21zM621 339q0 91 -22.5 160t-58.5 107t-74.5 56t-77.5 18q-38 0 -76 -17.5t-74 -54.5t-59 -107t-23 -162q0 -81 17.5 -143.5t46 -98t53 -54t49.5 -27.5q-14 28 -14 48q0 33 23 58.5t59 25.5q71 0 113 -106q118 87 118 297zM477 26
q-19 100 -87 100q-27 0 -43.5 -19t-16.5 -43q0 -11 3.5 -23t18 -25t37.5 -13q47 0 88 23z" />
    <glyph glyph-name="R" unicode="R" horiz-adv-x="736" 
d="M732 88q0 -13 -4 -29.5t-13.5 -35.5t-30 -32t-47.5 -13q-78 0 -126 42q-20 18 -29 41.5t-10.5 42t-1.5 59.5q0 58 -6 83.5t-32 50.5q-35 34 -93 34h-115v-253q0 -29 12.5 -38t66.5 -9h24v-31q-36 3 -146 3t-146 -3v31h24q54 0 66.5 9t12.5 38v527q0 29 -12.5 38t-66.5 9
h-24v31h314q109 0 185 -53.5t76 -126.5q0 -56 -49.5 -100t-125.5 -63q99 -34 122 -116l13 -80q4 -29 6.5 -43.5t7 -34.5t9 -29.5t11.5 -19.5t16 -13.5t21 -3.5q23 0 42.5 20.5t23.5 68.5q2 16 12 16q13 0 13 -17zM507 503q0 35 -8 61.5t-25 42t-34 25.5t-43.5 14t-44.5 5
t-47 1q-49 0 -59 -2q-11 -1 -15.5 -6.5t-5.5 -11.5t-1 -20v-259h111q53 0 89 13t53 36.5t23.5 47t6.5 53.5z" />
    <glyph glyph-name="S" unicode="S" horiz-adv-x="556" 
d="M499 186q0 -85 -55.5 -146.5t-141.5 -61.5q-62 0 -110 20.5t-74 49.5l-36 -57q-8 -13 -15 -13q-8 0 -9.5 4.5t-1.5 19.5v200q0 11 0.5 15t3.5 7t9 3q11 0 12 -10q3 -99 62 -154q58 -54 158 -54q60 0 97 43t37 100q0 54 -31 92q-13 17 -29.5 28t-26.5 14.5t-29 8.5
q-124 30 -132 33q-59 20 -95 70.5t-36 112.5q0 80 56.5 137t138.5 57q41 0 75.5 -13t48.5 -24.5t36 -32.5l35 57q8 13 15 13q8 0 9.5 -4.5t1.5 -19.5v-201q0 -11 -0.5 -15t-3.5 -6.5t-9 -2.5q-10 0 -12 12q-28 209 -195 209q-57 0 -94.5 -38.5t-37.5 -92.5q0 -44 27.5 -80
t73.5 -47l128 -31q64 -15 107 -71.5t43 -130.5z" />
    <glyph glyph-name="T" unicode="T" horiz-adv-x="722" 
d="M685 452h-25q-4 45 -7.5 71t-12 50.5t-19 36.5t-30.5 21.5t-46 12t-65 2.5q-46 0 -57 -2q-12 -3 -15 -11.5t-3 -26.5v-527q0 -20 4 -28t27 -14t74 -6h40v-31q-41 3 -190 3q-148 0 -189 -3v31h40q51 0 74 6t27 14t4 28v527q0 14 -1 20t-5.5 11t-14.5 7t-54 2
q-39 0 -65 -2.5t-46 -12t-30.5 -21.5t-19 -36.5t-12 -50.5t-7.5 -71h-25l19 225h611z" />
    <glyph glyph-name="U" unicode="U" horiz-adv-x="750" 
d="M716 652q-36 0 -59 -6.5t-31.5 -20.5t-10.5 -24t-2 -27v-320q0 -49 -3 -69q-13 -87 -75 -147t-147 -60q-103 0 -177.5 72.5t-74.5 177.5v377q0 29 -12.5 38t-66.5 9h-24v31q35 -3 148 -3q112 0 147 3v-31h-24q-54 0 -66.5 -9t-12.5 -38v-381q0 -67 18.5 -113t47.5 -66.5
t52.5 -28t46.5 -7.5q76 0 134 60.5t58 161.5v347q0 15 -2 24t-10.5 22.5t-31.5 20.5t-59 7v31l119 -3l118 3v-31z" />
    <glyph glyph-name="V" unicode="V" horiz-adv-x="750" 
d="M730 652q-84 -1 -109 -67l-223 -588q-4 -12 -8 -15.5t-16 -3.5q-10 0 -15 4t-10 18l-232 614q-10 27 -27.5 32.5t-70.5 5.5v31l127 -3q107 0 143 3v-31q-82 0 -82 -29q0 -4 6 -18l191 -505l183 482q5 15 5 20q0 20 -18.5 34.5t-54.5 15.5v31l114 -3q51 0 97 3v-31z" />
    <glyph glyph-name="W" unicode="W" horiz-adv-x="1028" 
d="M1009 652q-79 0 -100 -67l-191 -587q-2 -8 -3.5 -11.5t-5.5 -6t-11 -2.5q-13 0 -19 19l-166 509l-165 -508q-2 -8 -3.5 -11.5t-5.5 -6t-11 -2.5q-13 0 -19 19l-200 613q-9 29 -22.5 35.5t-68.5 6.5v31l122 -3q106 0 142 3v-31q-84 0 -84 -30q0 -7 2 -13l161 -492l139 429
l-22 70q-8 25 -25 30.5t-65 5.5v31l122 -3q106 0 142 3v-31q-84 0 -84 -30q0 -3 3 -15l160 -490l150 462q5 15 5 20q0 18 -21 35t-66 18v31l119 -3q46 0 91 3v-31z" />
    <glyph glyph-name="X" unicode="X" horiz-adv-x="750" 
d="M726 0l-130 3q-111 0 -146 -3v31q30 1 47.5 10.5t17.5 19.5q0 1 -5 11l-158 239l-142 -210q-10 -16 -10 -24q0 -16 16 -30.5t47 -15.5v-31q-36 3 -128 3l-111 -3v31q46 0 79.5 14t43.5 24.5t22 27.5l164 242l-184 278q-14 21 -33 28t-60 7h-19v31l130 -3q111 0 146 3v-31
q-30 -1 -47.5 -10.5t-17.5 -19.5q0 -4 7 -15l129 -193l114 169q9 14 9 23q0 18 -16.5 31.5t-45.5 14.5v31q40 -3 128 -3l111 3v-31q-101 -1 -145 -65l-137 -201l211 -319q15 -22 34 -29t60 -7h19v-31z" />
    <glyph glyph-name="Y" unicode="Y" horiz-adv-x="750" 
d="M738 652q-89 0 -128 -65l-193 -314v-193q0 -31 12.5 -40t67.5 -9h23v-31q-36 3 -146 3t-146 -3v31h24q54 0 66.5 9t12.5 38v195l-210 342q-9 15 -16 21.5t-25 11t-51 4.5h-18v31l130 -3q112 0 148 3v-31q-37 0 -53.5 -5t-16.5 -20q0 -7 7 -17l181 -295l165 268
q10 15 10 30q0 17 -14 28t-43 11v31l115 -3q52 0 98 3v-31z" />
    <glyph glyph-name="Z" unicode="Z" horiz-adv-x="611" 
d="M560 267l-17 -267h-461q-17 0 -21.5 2.5t-4.5 14.5q0 9 7 20l389 615h-157q-60 0 -99.5 -13.5t-60.5 -42t-29.5 -60t-11.5 -78.5h-25l11 225h448h12.5t7.5 -2t5 -5t1 -9q0 -8 -7 -19l-388 -614h164q54 0 92 11.5t60 29.5t35 50.5t17.5 63t7.5 78.5h25z" />
    <glyph glyph-name="bracketleft" unicode="[" 
d="M256 -230q0 -8 -6 -14t-14 -6h-122v1000h122q8 0 14 -6t6 -14t-6 -14t-14 -6h-82v-920h82q8 0 14 -6t6 -14z" />
    <glyph glyph-name="backslash" unicode="\" horiz-adv-x="500" 
d="M444 -230q0 -8 -6 -14t-14 -6q-14 0 -19 13l-349 960q-1 2 -1 7q0 8 6 14t14 6q14 0 19 -13l349 -960q1 -2 1 -7z" />
    <glyph glyph-name="bracketright" unicode="]" 
d="M164 -250h-122q-8 0 -14 6t-6 14t6 14t14 6h82v920h-82q-8 0 -14 6t-6 14t6 14t14 6h122v-1000z" />
    <glyph glyph-name="asciicircum" unicode="^" horiz-adv-x="556" 
d="M561 584l-12 -22l-272 123l-271 -123l-11 22l283 160z" />
    <glyph glyph-name="underscore" unicode="_" horiz-adv-x="333" 
d="M333 -140h-333v40h333v-40z" />
    <glyph glyph-name="grave" unicode="`" horiz-adv-x="500" 
d="M312 528l-17 -18l-152 122q-17 13 -17 30q0 14 11 25t25 11q19 0 30 -17z" />
    <glyph glyph-name="a" unicode="a" horiz-adv-x="500" 
d="M483 89q0 -53 -28 -74t-54 -21q-33 0 -54 24.5t-24 57.5q-15 -38 -49.5 -62.5t-81.5 -24.5q-36 0 -70 9t-62 34t-28 63q0 85 100 130q60 29 184 36v37q0 62 -32.5 95t-73.5 33q-73 0 -108 -46q30 -1 40.5 -16t10.5 -30q0 -20 -12.5 -33t-33.5 -13q-20 0 -33 12.5
t-13 34.5q0 49 44 81t107 32q82 0 137 -55q17 -17 25.5 -39t9.5 -36.5t1 -42.5v-200q0 -6 2 -15.5t11 -22t24 -12.5q36 0 36 64v56h25v-56zM316 140v100q-111 -4 -159 -48t-48 -96q0 -37 26.5 -61t63.5 -24q42 0 79.5 32.5t37.5 96.5z" />
    <glyph glyph-name="b" unicode="b" horiz-adv-x="556" 
d="M521 216q0 -95 -66 -161t-157 -66q-83 0 -131 73l-36 -62h-25v596q0 37 -13 46.5t-65 9.5v31l144 11v-317q58 65 137 65q86 0 149 -66t63 -160zM438 217q0 93 -29 139q-40 64 -105 64q-73 0 -118 -64q-11 -16 -11 -36v-206q0 -21 14 -42q40 -61 105 -61q70 0 113 64
q31 48 31 142z" />
    <glyph glyph-name="c" unicode="c" horiz-adv-x="444" 
d="M415 119q0 -5 -4 -17.5t-16 -32.5t-29.5 -37.5t-48 -30t-68.5 -12.5q-88 0 -151.5 66t-63.5 161t62.5 163.5t154.5 68.5q61 0 107 -29t46 -78q0 -22 -13 -34.5t-33 -12.5q-21 0 -33.5 13t-12.5 33q0 9 3 17.5t14 18t30 10.5q-36 37 -107 37q-51 0 -93 -48t-42 -157
q0 -57 14 -99t37 -63.5t45.5 -31.5t44.5 -10q98 0 131 105q3 10 13 10q13 0 13 -10z" />
    <glyph glyph-name="d" unicode="d" horiz-adv-x="556" 
d="M527 0l-147 -11v66q-52 -66 -134 -66q-86 0 -149 66t-63 160q0 95 66.5 161t156.5 66q76 0 126 -62v216q0 37 -13 46.5t-65 9.5v31l144 11v-607q0 -37 13 -46.5t65 -9.5v-31zM380 118v205q0 20 -11 37q-41 60 -108 60q-70 0 -113 -64q-31 -48 -31 -142q0 -93 29 -139
q40 -64 105 -64q74 0 118 70q11 17 11 37z" />
    <glyph glyph-name="e" unicode="e" horiz-adv-x="444" 
d="M415 119q0 -9 -9.5 -28.5t-27.5 -43t-53 -41t-77 -17.5q-88 0 -154 66.5t-66 164.5q0 94 60.5 161t147.5 67q88 0 133.5 -57t45.5 -139q0 -15 -4 -18t-21 -3h-279q0 -102 30 -150q42 -67 113 -67q10 0 21.5 2t35.5 10.5t45 31.5t33 59q3 14 13 14q13 0 13 -12zM349 252
q0 21 -3.5 44.5t-14 56t-35 53t-60.5 20.5q-16 0 -33.5 -7t-38.5 -23.5t-35.5 -54t-16.5 -89.5h237z" />
    <glyph glyph-name="f" unicode="f" horiz-adv-x="306" 
d="M357 635q0 -19 -11.5 -31.5t-32.5 -12.5q-20 0 -31.5 12.5t-11.5 30.5q0 32 30 42q-15 7 -33 7q-36 0 -64 -37t-28 -99v-116h117v-31h-114v-322q0 -29 12 -38t64 -9h21v-31q-40 3 -127 3l-114 -3v31q53 0 65.5 6.5t12.5 38.5v324h-79v31h79v115q0 74 48 116.5t107 42.5
q39 0 64.5 -21t25.5 -49z" />
    <glyph glyph-name="g" unicode="g" horiz-adv-x="500" 
d="M485 404q0 -15 -9.5 -22.5t-19.5 -7.5q-12 0 -20.5 8t-8.5 21q0 21 16 27l-10 1q-49 0 -90 -39q41 -38 41 -97t-47 -102.5t-115 -43.5q-56 0 -99 31q-17 -20 -17 -47q0 -25 15 -44.5t38 -22.5q7 -1 75 -1q40 0 62 -1t53.5 -7.5t56.5 -19.5q65 -36 65 -114
q0 -57 -65.5 -93t-156.5 -36q-92 0 -156.5 36.5t-64.5 90.5q0 32 24.5 60t67.5 40q-44 28 -44 89q0 47 31 83q-47 39 -47 103q0 59 47 102.5t115 43.5q60 0 106 -36q48 47 106 47q26 0 38.5 -16t12.5 -33zM309 296q0 123 -87 123q-44 0 -71 -40q-16 -27 -16 -84
q0 -123 87 -123q44 0 71 40q16 27 16 84zM419 -79q0 30 -17 49t-52 26.5t-59.5 9t-69.5 1.5h-59q-34 -2 -58 -27t-24 -59q0 -41 48.5 -72.5t121.5 -31.5q72 0 120.5 31t48.5 73z" />
    <glyph glyph-name="h" unicode="h" horiz-adv-x="556" 
d="M535 0l-112 3l-113 -3v31q53 0 65.5 6.5t12.5 38.5v233q0 51 -15.5 81t-58.5 30q-52 0 -93.5 -43.5t-41.5 -116.5v-184q0 -32 12.5 -38.5t65.5 -6.5v-31l-112 3l-113 -3v31q53 0 65.5 6.5t12.5 38.5v520q0 37 -13 46.5t-65 9.5v31l144 11v-348h1q16 36 52 66t92 30
q75 0 105 -37q22 -25 26.5 -53t4.5 -100v-191q1 -21 17 -25.5t61 -4.5v-31z" />
    <glyph glyph-name="i" unicode="i" 
d="M247 0q-102 3 -104 3l-110 -3v31q53 0 65.5 6.5t12.5 38.5v269q0 37 -12.5 46t-61.5 9v31l140 11v-367q0 -30 10.5 -37t59.5 -7v-31zM192 604q0 -20 -15 -36.5t-39 -16.5q-22 0 -37.5 16t-15.5 37q0 20 15 36.5t39 16.5q22 0 37.5 -16t15.5 -37z" />
    <glyph glyph-name="j" unicode="j" horiz-adv-x="306" 
d="M210 -50q0 -67 -40 -111t-97 -44q-46 0 -79.5 21.5t-33.5 58.5q0 20 12.5 33t33.5 13t33.5 -13t12.5 -33q0 -18 -10.5 -29.5t-24.5 -15.5q26 -13 54 -13q23 0 38.5 13.5t22.5 36t9.5 41.5t2.5 40v396q0 37 -14.5 46.5t-71.5 9.5v31l152 11v-492zM210 604q0 -20 -15 -36.5
t-39 -16.5q-22 0 -37.5 16t-15.5 37q0 20 15 36.5t39 16.5q22 0 37.5 -16t15.5 -37z" />
    <glyph glyph-name="k" unicode="k" horiz-adv-x="528" 
d="M511 0q-43 3 -87 3l-108 -3v31q36 0 36 23q0 16 -81 128l-19 25q-12 18 -19 27l-64 -55v-103q0 -32 12.5 -38.5t65.5 -6.5v-31l-110 3l-109 -3v31q53 0 65.5 6.5t12.5 38.5v520q0 37 -13 46.5t-65 9.5v31l144 11v-480l141 122q22 19 22 39q0 23 -29 25v31q42 -3 112 -3
q41 0 70 3v-31q-63 -3 -126 -54q-14 -11 -47.5 -40t-33.5 -32q0 -1 1 -3.5t3 -4.5t2 -3l127 -179q26 -36 45 -44.5t52 -8.5v-31z" />
    <glyph glyph-name="l" unicode="l" 
d="M255 0l-111 3l-111 -3v31q53 0 65.5 6.5t12.5 38.5v520q0 37 -13 46.5t-65 9.5v31l144 11v-618q0 -32 12.5 -38.5t65.5 -6.5v-31z" />
    <glyph glyph-name="m" unicode="m" horiz-adv-x="833" 
d="M813 0l-112 3l-113 -3v31q53 0 65.5 6.5t12.5 38.5v233q0 51 -15.5 81t-58.5 30q-52 0 -93.5 -43.5t-41.5 -116.5v-184q0 -32 12.5 -38.5t65.5 -6.5v-31l-112 3l-113 -3v31q53 0 65.5 6.5t12.5 38.5v233q0 51 -15.5 81t-58.5 30q-52 0 -93.5 -43.5t-41.5 -116.5v-184
q0 -32 12.5 -38.5t65.5 -6.5v-31l-112 3l-113 -3v31q53 0 65.5 6.5t12.5 38.5v268q0 37 -13 46.5t-65 9.5v31l141 11v-105q47 105 148 105q117 0 133 -98q17 38 53 68t92 30q75 0 105 -37q22 -25 26.5 -53t4.5 -100v-191q1 -21 17 -25.5t61 -4.5v-31z" />
    <glyph glyph-name="n" unicode="n" horiz-adv-x="556" 
d="M535 0l-112 3l-113 -3v31q53 0 65.5 6.5t12.5 38.5v233q0 51 -15.5 81t-58.5 30q-52 0 -93.5 -43.5t-41.5 -116.5v-184q0 -32 12.5 -38.5t65.5 -6.5v-31l-112 3l-113 -3v31q53 0 65.5 6.5t12.5 38.5v268q0 37 -13 46.5t-65 9.5v31l141 11v-105q47 105 148 105
q75 0 105 -37q22 -25 26.5 -53t4.5 -100v-191q1 -21 17 -25.5t61 -4.5v-31z" />
    <glyph glyph-name="o" unicode="o" horiz-adv-x="500" 
d="M471 214q0 -94 -65.5 -159.5t-156.5 -65.5q-89 0 -155 65t-66 160t64.5 164.5t157.5 69.5q91 0 156 -69t65 -165zM388 222q0 96 -26 139q-39 65 -113 65q-32 0 -63.5 -17t-50.5 -50q-24 -44 -24 -137q0 -97 25 -141q39 -67 114 -67q37 0 68 20t48 54q22 44 22 134z" />
    <glyph glyph-name="p" unicode="p" horiz-adv-x="556" 
d="M521 216q0 -95 -66 -161t-157 -66q-50 0 -83.5 25.5t-39.5 44.5v-9v-168q0 -32 12.5 -38.5t65.5 -6.5v-31l-113 3l-112 -3v31q53 0 65.5 6.5t12.5 38.5v468q0 33 -12.5 41.5t-65.5 8.5v31l144 11v-66q60 66 140 66q85 0 147 -66t62 -160zM438 216q0 84 -39.5 142.5
t-94.5 58.5q-39 0 -73 -21t-56 -59v-223q0 -15 2 -20.5t12 -21.5q40 -61 105 -61q57 0 100.5 58.5t43.5 146.5z" />
    <glyph glyph-name="q" unicode="q" horiz-adv-x="528" 
d="M527 -194l-113 3l-112 -3v31q53 0 65.5 6.5t12.5 38.5v179q-55 -72 -133 -72q-87 0 -150 66.5t-63 159.5q0 96 66 161.5t155 65.5q37 0 67.5 -18t44 -36t22.5 -37l38 91h22v-560q0 -32 12.5 -38.5t65.5 -6.5v-31zM383 136v141q0 47 -33.5 93.5t-88.5 46.5
q-57 0 -100.5 -57.5t-43.5 -144.5q0 -86 39.5 -145t94.5 -59q54 0 92 41q40 44 40 84z" />
    <glyph glyph-name="r" unicode="r" horiz-adv-x="392" 
d="M364 381q0 -22 -13.5 -33t-29.5 -11q-18 0 -30.5 11.5t-12.5 31.5q0 12 5.5 21.5t10 13t7.5 4.5q-2 1 -11 1q-55 0 -86.5 -55t-31.5 -133v-154q0 -29 12 -38t64 -9h21v-31q-40 3 -127 3l-114 -3v31q53 0 65.5 6.5t12.5 38.5v268q0 37 -13 46.5t-65 9.5v31l139 11v-110
q14 43 44 76.5t79 33.5q32 0 53 -18t21 -43z" />
    <glyph glyph-name="s" unicode="s" horiz-adv-x="394" 
d="M360 128q0 -59 -40 -99t-121 -40q-65 0 -110 43q-6 -6 -10.5 -11t-6 -7t-2 -3t-1.5 -2q-20 -20 -25 -20q-8 0 -9.5 4.5t-1.5 19.5v132q0 11 0.5 15t3.5 7t9 3q7 0 9.5 -3t4.5 -14q15 -69 47.5 -105.5t91.5 -36.5q56 0 84.5 25t28.5 66q0 73 -104 92q-60 12 -85 20t-47 26
q-43 35 -43 85t38 86.5t122 36.5q56 0 94 -28q11 9 17 16q13 12 20 12q8 0 9.5 -5t1.5 -19v-101q0 -11 -0.5 -15t-3.5 -6.5t-9 -2.5q-11 0 -12 9q-8 121 -117 121q-59 0 -85.5 -22.5t-26.5 -53.5q0 -17 8 -30t18.5 -20.5t30 -14.5t31.5 -9.5l35 -7.5q80 -15 114 -48
q42 -42 42 -95z" />
    <glyph glyph-name="t" unicode="t" horiz-adv-x="389" 
d="M332 124q0 -54 -25 -94.5t-74 -40.5q-18 0 -36 4.5t-41 16.5t-37.5 41.5t-14.5 72.5v276h-85v22q46 2 76.5 34.5t41 72.5t11.5 86h25v-184h143v-31h-143v-278q0 -108 67 -108q29 0 48 29.5t19 82.5v55h25v-57z" />
    <glyph glyph-name="u" unicode="u" horiz-adv-x="556" 
d="M535 0l-144 -11v90q-42 -90 -129 -90q-44 0 -74 11t-45 25t-23 41t-9 43.5t-1 48.5v150q0 68 -10 80t-68 12v31l147 11v-332q0 -24 2 -38t10 -30t27 -23.5t49 -7.5q54 0 87.5 44.5t33.5 110.5v178q0 37 -13 46.5t-65 9.5v31l147 11v-355q0 -37 13 -46.5t65 -9.5v-31z" />
    <glyph glyph-name="v" unicode="v" horiz-adv-x="528" 
d="M508 400q-30 0 -51 -13.5t-27.5 -25t-13.5 -28.5l-131 -325q-8 -19 -21 -19q-9 0 -12.5 3.5t-8.5 15.5l-144 355q-10 25 -22.5 31t-57.5 6v31q45 -3 97 -3l109 3v-31q-57 0 -57 -26q0 -4 6 -17l112 -279l102 255q6 17 6 24q0 17 -11.5 29.5t-36.5 13.5v31l87 -3
q40 0 75 3v-31z" />
    <glyph glyph-name="w" unicode="w" horiz-adv-x="722" 
d="M703 400q-62 -2 -84 -64l-117 -328q-11 -18 -20 -19q-13 0 -20 19l-102 284l-101 -283q-4 -12 -7.5 -16t-12.5 -4t-13 5t-8 17l-126 354q-9 23 -22 29t-52 6v31l93 -3l109 3v-31q-59 0 -59 -27q0 -6 5 -18l95 -267l86 242q-18 49 -23 55q-12 15 -63 15v31q45 -3 89 -3
l104 3v-31q-59 0 -59 -27q0 -4 5 -19l99 -279l91 256q5 13 5 21q0 22 -15.5 34.5t-42.5 13.5v31l93 -3q40 0 73 3v-31z" />
    <glyph glyph-name="x" unicode="x" horiz-adv-x="528" 
d="M516 0q-45 3 -96 3l-108 -3v31q18 1 27 9t9 16q0 4 -21 33l-76 100q-76 -90 -86 -111q-4 -9 -4 -16q0 -27 29 -31v-31l-95 3q-44 0 -83 -3v31q78 0 128 60l94 119l-99 129q-35 45 -50.5 53t-67.5 8v31q40 -3 95 -3l108 3v-31q-35 -2 -35 -25q0 -8 9 -18l78 -101l62 78
q15 18 15 35q0 28 -29 31v31q39 -3 96 -3q43 0 82 3v-31q-76 -2 -119 -52q-19 -21 -92 -113l134 -173q16 -21 34 -26t61 -5v-31z" />
    <glyph glyph-name="y" unicode="y" horiz-adv-x="528" 
d="M508 400q-67 0 -93 -64l-176 -427q-48 -114 -128 -114q-38 0 -65 23.5t-27 57.5q0 21 12.5 32t29.5 11q18 0 30 -11.5t12 -30.5q0 -37 -39 -42q19 -18 47 -18q30 0 54 22t34.5 43t25.5 59l25 59l-150 365q-10 24 -25 29.5t-56 5.5v31q45 -3 97 -3l109 3v-31
q-56 0 -56 -26q0 -3 6 -18l111 -269l101 246q6 14 6 24q0 41 -47 43v31l87 -3q40 0 75 3v-31z" />
    <glyph glyph-name="z" unicode="z" horiz-adv-x="444" 
d="M401 187l-17 -187h-330q-16 0 -21 2t-5 12q0 7 9 18l279 377h-114q-79 0 -104.5 -29t-30.5 -110h-25l11 161h320q11 0 15.5 -0.5t7.5 -3.5t3 -9t-9 -17l-278 -376h118q83 0 111 34.5t35 127.5h25z" />
    <glyph glyph-name="braceleft" unicode="{" horiz-adv-x="500" 
d="M425 -238q0 -12 -12 -12q-80 0 -138 35.5t-58 89.5v250q0 45 -37.5 79t-92.5 34q-12 0 -12 12t12 12q55 0 92.5 34t37.5 79v250q0 54 58 89.5t138 35.5q12 0 12 -12t-12 -12q-55 0 -92.5 -30.5t-37.5 -70.5v-250q0 -42 -31.5 -75.5t-83.5 -49.5q52 -16 83.5 -49.5
t31.5 -75.5v-250q0 -40 37.5 -70.5t92.5 -30.5q12 0 12 -12z" />
    <glyph glyph-name="bar" unicode="|" 
d="M159 -230q0 -8 -6 -14t-14 -6t-14 6t-6 14v960q0 8 6 14t14 6t14 -6t6 -14v-960z" />
    <glyph glyph-name="braceright" unicode="}" horiz-adv-x="500" 
d="M425 250q0 -12 -12 -12q-55 0 -92.5 -34t-37.5 -79v-250q0 -54 -58 -89.5t-138 -35.5q-12 0 -12 12t12 12q55 0 92.5 30.5t37.5 70.5v250q0 42 31.5 75.5t83.5 49.5q-52 16 -83.5 49.5t-31.5 75.5v250q0 40 -37.5 70.5t-92.5 30.5q-12 0 -12 12t12 12q80 0 138 -35.5
t58 -89.5v-250q0 -45 37.5 -79t92.5 -34q12 0 12 -12z" />
    <glyph glyph-name="asciitilde" unicode="~" horiz-adv-x="556" 
d="M555 290l-54 -44q-20 -17 -57 -35q-40 -18 -73 -18q-42 0 -100 34q-65 37 -104 37q-68 0 -153 -71l-14 17l54 44q20 17 57 35q40 18 73 18q42 0 100 -34q65 -37 104 -37q68 0 153 71z" />
    <glyph glyph-name="parenleft.v1" horiz-adv-x="422" 
d="M362 -287q0 -10 -10 -10q-5 0 -6 2q-92 69 -161 212.5t-69 280.5v104q0 137 69 280.5t161 212.5q1 2 6 2q10 0 10 -10q0 -5 -4 -8q-81 -61 -133.5 -201t-52.5 -276v-104q0 -136 52.5 -276t133.5 -201q4 -3 4 -8z" />
    <glyph glyph-name="parenright.v1" horiz-adv-x="422" 
d="M306 198q0 -137 -69 -280.5t-161 -212.5q-1 -2 -6 -2q-10 0 -10 10q0 5 4 8q81 61 133.5 201t52.5 276v104q0 136 -52.5 276t-133.5 201q-4 3 -4 8q0 10 10 10q5 0 6 -2q92 -69 161 -212.5t69 -280.5v-104z" />
    <glyph glyph-name="braceleft.v1" horiz-adv-x="540" 
d="M454 -287q0 -13 -14 -13q-84 5 -144 44t-60 93v276q0 46 -40 83.5t-98 40.5q-12 0 -12 13t12 13q58 3 98 40.5t40 83.5v276q0 54 60 93t144 44q14 0 14 -13t-12 -13q-58 -3 -98 -36.5t-40 -74.5v-276q0 -46 -36 -82.5t-94 -54.5q58 -18 94 -54.5t36 -82.5v-276
q0 -41 40 -74.5t98 -36.5q12 0 12 -13z" />
    <glyph glyph-name="braceright.v1" horiz-adv-x="540" 
d="M454 250q0 -5 -3.5 -9t-8.5 -4q-58 -3 -98 -40.5t-40 -83.5v-276q0 -54 -60 -93t-144 -44q-14 0 -14 13t12 13q58 3 98 36.5t40 74.5v276q0 46 36 82.5t94 54.5q-58 18 -94 54.5t-36 82.5v276q0 41 -40 74.5t-98 36.5q-12 0 -12 13t14 13q84 -5 144 -44t60 -93v-276
q0 -46 40 -83.5t98 -40.5q5 0 8.5 -4t3.5 -9z" />
    <glyph glyph-name="bracketleft.v1" horiz-adv-x="340" 
d="M313 -279q0 -9 -6 -15t-15 -6h-131v1100h131q9 0 15 -6t6 -15t-6 -15t-15 -6h-89v-1016h89q9 0 15 -6t6 -15z" />
    <glyph glyph-name="bracketright.v1" horiz-adv-x="340" 
d="M179 800v-1100h-131q-8 0 -14.5 6t-6.5 15t6.5 15t14.5 6h89v1016h-89q-8 0 -14.5 6t-6.5 15t6.5 15t14.5 6h131z" />
    <glyph glyph-name="parenleft.v2" horiz-adv-x="458" 
d="M395 -336q0 -11 -11 -11q-3 0 -7 2q-98 74 -172 229t-74 302v128q0 147 74 302t172 229q4 2 7 2q11 0 11 -11q0 -5 -4 -9q-88 -66 -145 -216.5t-57 -296.5v-128q0 -146 57 -296.5t145 -216.5q4 -4 4 -9z" />
    <glyph glyph-name="parenright.v2" horiz-adv-x="458" 
d="M327 186q0 -147 -74 -302t-172 -229q-4 -2 -7 -2q-11 0 -11 11q0 5 4 9q88 66 145 216.5t57 296.5v128q0 146 -57 296.5t-145 216.5q-4 4 -4 9q0 11 11 11q3 0 7 -2q98 -74 172 -229t74 -302v-128z" />
    <glyph glyph-name="braceleft.v2" horiz-adv-x="583" 
d="M486 -336q0 -14 -14 -14h-1q-88 9 -151 52t-63 98v300q0 48 -42.5 89t-103.5 47q-13 2 -13 14t13 14q61 6 103.5 47t42.5 89v300q0 55 63 98t151 52h1q14 0 14 -14q0 -12 -13 -14q-61 -6 -103.5 -42.5t-42.5 -79.5v-300q0 -49 -41 -89.5t-105 -60.5q64 -20 105 -60.5
t41 -89.5v-300q0 -43 42.5 -79.5t103.5 -42.5q13 -2 13 -14z" />
    <glyph glyph-name="braceright.v2" horiz-adv-x="583" 
d="M485 250q0 -12 -13 -14q-61 -6 -103.5 -47t-42.5 -89v-300q0 -55 -63 -98t-151 -52h-1q-14 0 -14 14q0 12 13 14q61 6 103.5 42.5t42.5 79.5v300q0 49 41 89.5t105 60.5q-64 20 -105 60.5t-41 89.5v300q0 43 -42.5 79.5t-103.5 42.5q-13 2 -13 14q0 14 14 14h1
q88 -9 151 -52t63 -98v-300q0 -48 42.5 -89t103.5 -47q13 -2 13 -14z" />
    <glyph glyph-name="bracketleft.v2" horiz-adv-x="417" 
d="M383 -327q0 -10 -6.5 -16.5t-16.5 -6.5h-143v1200h143q10 0 16.5 -6.5t6.5 -16.5t-6.5 -16.5t-16.5 -6.5h-97v-1108h97q10 0 16.5 -6.5t6.5 -16.5z" />
    <glyph glyph-name="bracketright.v2" horiz-adv-x="417" 
d="M200 850v-1200h-143q-10 0 -16.5 6.5t-6.5 16.5t6.5 16.5t16.5 6.5h97v1108h-97q-10 0 -16.5 6.5t-6.5 16.5t6.5 16.5t16.5 6.5h143z" />
    <glyph glyph-name="parenleft.v3" horiz-adv-x="523" 
d="M461 -459q0 -13 -13 -13q-5 0 -8 3q-113 86 -198.5 270.5t-85.5 362.5v172q0 178 85.5 362.5t198.5 270.5q3 3 8 3q13 0 13 -13q0 -7 -5 -10q-102 -77 -169 -256t-67 -357v-172q0 -178 67 -357t169 -256q5 -3 5 -10z" />
    <glyph glyph-name="parenright.v3" horiz-adv-x="523" 
d="M367 164q0 -178 -85.5 -362.5t-198.5 -270.5q-5 -3 -8 -3q-13 0 -13 13q0 7 5 10q102 77 169 256t67 357v172q0 178 -67 357t-169 256q-5 3 -5 10q0 13 13 13q3 0 8 -3q113 -86 198.5 -270.5t85.5 -362.5v-172z" />
    <glyph glyph-name="braceleft.v3" horiz-adv-x="624" 
d="M524 -459q0 -16 -16 -16h-2q-95 15 -163.5 67t-68.5 115v361q0 56 -46 106t-114 60q-14 2 -14 16t14 16q68 10 114 60t46 106v361q0 63 68.5 115t163.5 67h2q16 0 16 -16q0 -14 -14 -16q-67 -10 -113.5 -55.5t-46.5 -94.5v-361q0 -58 -47 -107t-121 -75q74 -26 121 -75
t47 -107v-361q0 -49 46.5 -94.5t113.5 -55.5q14 -2 14 -16z" />
    <glyph glyph-name="braceright.v3" horiz-adv-x="624" 
d="M524 250q0 -14 -14 -16q-68 -10 -114 -60t-46 -106v-361q0 -63 -68.5 -115t-163.5 -67h-2q-16 0 -16 16q0 14 13 16q68 10 114.5 55t46.5 95v361q0 58 47 107t120 75q-73 26 -120 75t-47 107v361q0 50 -46.5 95t-114.5 55q-13 2 -13 16q0 16 16 16h2q95 -15 163.5 -67
t68.5 -115v-361q0 -56 46 -106t114 -60q14 -2 14 -16z" />
    <glyph glyph-name="bracketleft.v3" horiz-adv-x="444" 
d="M414 -451q0 -10 -7 -17t-17 -7h-164v1450h164q10 0 17 -7t7 -17t-7 -17t-17 -7h-116v-1354h116q10 0 17 -7t7 -17z" />
    <glyph glyph-name="bracketright.v3" horiz-adv-x="444" 
d="M218 975v-1450h-164q-10 0 -17 7t-7 17t7 17t17 7h116v1354h-116q-10 0 -17 7t-7 17t7 17t17 7h164z" />
    <glyph glyph-name="parenleft.v4" horiz-adv-x="597" 
d="M539 -632q0 -14 -14 -14q-3 0 -9 2q-135 102 -236 328.5t-101 447.5v236q0 221 101 447.5t236 328.5q6 2 9 2q14 0 14 -14q0 -7 -5 -12q-122 -92 -202.5 -312t-80.5 -440v-236q0 -220 80.5 -440t202.5 -312q5 -5 5 -12z" />
    <glyph glyph-name="parenright.v4" horiz-adv-x="597" 
d="M418 132q0 -221 -101 -447.5t-236 -328.5q-6 -2 -9 -2q-14 0 -14 14q0 7 5 12q122 92 202.5 312t80.5 440v236q0 220 -80.5 440t-202.5 312q-5 5 -5 12q0 14 14 14q3 0 9 -2q135 -102 236 -328.5t101 -447.5v-236z" />
    <glyph glyph-name="braceleft.v4" horiz-adv-x="667" 
d="M569 -632q0 -8 -5.5 -13t-12.5 -5h-4q-105 22 -180.5 86t-75.5 139v450q0 68 -51.5 130t-128.5 77q-14 4 -14 18t14 18q77 15 128.5 77t51.5 130v450q0 75 75.5 139t180.5 86h4q7 0 12.5 -5t5.5 -13q0 -14 -14 -18q-77 -15 -128.5 -72t-51.5 -117v-450q0 -69 -56 -131
t-140 -94q84 -32 140 -94t56 -131v-450q0 -60 51.5 -117t128.5 -72q14 -4 14 -18z" />
    <glyph glyph-name="braceright.v4" horiz-adv-x="667" 
d="M570 250q0 -14 -14 -18q-77 -15 -128.5 -77t-51.5 -130v-450q0 -75 -75.5 -139t-180.5 -86h-4q-8 0 -13 5t-5 13q0 14 14 18q77 15 128.5 72t51.5 117v450q0 69 56 131t140 94q-84 32 -140 94t-56 131v450q0 60 -51.5 117t-128.5 72q-14 4 -14 18q0 8 5 13t13 5h4
q105 -22 180.5 -86t75.5 -139v-450q0 -68 51.5 -130t128.5 -77q14 -4 14 -18z" />
    <glyph glyph-name="bracketleft.v4" horiz-adv-x="472" 
d="M448 -624q0 -10 -8 -18t-18 -8h-196v1800h196q10 0 18 -8t8 -18t-8 -18t-18 -8h-144v-1696h144q10 0 18 -8t8 -18z" />
    <glyph glyph-name="bracketright.v4" horiz-adv-x="472" 
d="M246 1150v-1800h-196q-10 0 -18 8t-8 18t8 18t18 8h144v1696h-144q-10 0 -18 8t-8 18t8 18t18 8h196z" />
    <glyph glyph-name="parenleft.v5" horiz-adv-x="663" 
d="M608 -780q0 -16 -16 -16q-6 0 -10 3q-153 115 -267 376t-114 517v300q0 256 114 517t267 376q4 3 10 3q16 0 16 -16q0 -7 -6 -13q-139 -104 -231 -358t-92 -509v-300q0 -255 92 -509t231 -358q6 -6 6 -13z" />
    <glyph glyph-name="parenright.v5" horiz-adv-x="663" 
d="M462 100q0 -256 -114.5 -517t-267.5 -376q-3 -3 -9 -3q-16 0 -16 16q0 8 6 13q139 104 231 358t92 509v300q0 255 -92 509t-231 358q-6 5 -6 13q0 16 16 16q6 0 9 -3q153 -115 267.5 -376t114.5 -517v-300z" />
    <glyph glyph-name="braceleft.v5" horiz-adv-x="707" 
d="M608 -780q0 -8 -6 -14t-14 -6q-3 0 -5 1q-112 28 -192.5 103t-80.5 158v526q0 77 -56 149t-139 94q-15 3 -15 19t15 19q83 22 139 94t56 149v526q0 83 80.5 158t192.5 103q2 1 5 1q8 0 14 -6t6 -14q0 -16 -15 -19q-83 -21 -139 -87.5t-56 -135.5v-526q0 -79 -61.5 -151
t-153.5 -111q92 -39 153.5 -111t61.5 -151v-526q0 -69 56 -135.5t139 -87.5q15 -3 15 -19z" />
    <glyph glyph-name="braceright.v5" horiz-adv-x="707" 
d="M607 250q0 -16 -15 -19q-83 -22 -139 -94t-56 -149v-526q0 -83 -80.5 -158t-192.5 -103q-1 -1 -5 -1q-8 0 -14 6t-6 14q0 15 15 19q83 21 139 87.5t56 135.5v526q0 79 62 151t154 111q-92 39 -154 111t-62 151v526q0 69 -56 135.5t-139 87.5q-15 4 -15 19q0 8 6 14t14 6
q4 0 5 -1q112 -28 192.5 -103t80.5 -158v-526q0 -77 56 -149t139 -94q15 -3 15 -19z" />
    <glyph glyph-name="bracketleft.v5" horiz-adv-x="499" 
d="M478 -773q0 -11 -8 -19t-19 -8h-221v2100h221q11 0 19 -8t8 -19t-8 -19t-19 -8h-167v-1992h167q11 0 19 -8t8 -19z" />
    <glyph glyph-name="bracketright.v5" horiz-adv-x="499" 
d="M269 -800h-221q-11 0 -19 8t-8 19t8 19t19 8h167v1992h-167q-11 0 -19 8t-8 19t8 19t19 8h221v-2100z" />
    <glyph glyph-name="parenleft.v6" horiz-adv-x="736" 
d="M682 -928q0 -8 -5 -13t-13 -5q-5 0 -11 4q-111 83 -208.5 244.5t-158 366t-60.5 395.5v372q0 191 60.5 395.5t158 366t208.5 244.5q6 4 11 4q8 0 13 -5t5 -13q0 -9 -7 -14q-104 -78 -187.5 -239.5t-128.5 -356.5t-45 -382v-372q0 -187 45 -382t128.5 -356.5t187.5 -239.5
q7 -5 7 -14z" />
    <glyph glyph-name="parenright.v6" horiz-adv-x="736" 
d="M510 64q0 -191 -60.5 -395.5t-158 -366t-208.5 -244.5q-6 -4 -11 -4q-8 0 -13 5t-5 13q0 9 7 14q104 78 187.5 239.5t128.5 356.5t45 382v372q0 187 -45 382t-128.5 356.5t-187.5 239.5q-7 5 -7 14q0 8 5 13t13 5q5 0 11 -4q111 -83 208.5 -244.5t158 -366t60.5 -395.5
v-372z" />
    <glyph glyph-name="braceleft.v6" horiz-adv-x="750" 
d="M648 -928q0 -9 -6.5 -15.5t-15.5 -6.5q-4 0 -6 1q-119 37 -205.5 123t-86.5 176v600q0 85 -60 168t-150 111q-16 5 -16 21t16 21q90 28 150 111t60 168v600q0 90 86.5 176t205.5 123q2 1 6 1q9 0 15.5 -6.5t6.5 -15.5q0 -16 -16 -21q-89 -28 -149.5 -104.5t-60.5 -152.5
v-600q0 -87 -68 -170t-169 -130q101 -47 169 -130t68 -170v-600q0 -76 60.5 -152.5t149.5 -104.5q16 -5 16 -21z" />
    <glyph glyph-name="braceright.v6" horiz-adv-x="750" 
d="M648 250q0 -16 -16 -21q-90 -28 -150 -111t-60 -168v-600q0 -90 -86.5 -176t-205.5 -123q-2 -1 -6 -1q-9 0 -15.5 6.5t-6.5 15.5q0 16 16 21q89 28 149.5 104.5t60.5 152.5v600q0 87 68 170t169 130q-101 47 -169 130t-68 170v600q0 76 -60.5 152.5t-149.5 104.5
q-16 5 -16 21q0 9 6.5 15.5t15.5 6.5q4 0 6 -1q119 -37 205.5 -123t86.5 -176v-600q0 -85 60 -168t150 -111q16 -5 16 -21z" />
    <glyph glyph-name="bracketleft.v6" horiz-adv-x="528" 
d="M509 -921q0 -12 -8.5 -20.5t-20.5 -8.5h-247v2400h247q12 0 20.5 -8.5t8.5 -20.5t-8.5 -20.5t-20.5 -8.5h-189v-2284h189q12 0 20.5 -8.5t8.5 -20.5z" />
    <glyph glyph-name="bracketright.v6" horiz-adv-x="528" 
d="M295 1450v-2400h-247q-12 0 -20.5 8.5t-8.5 20.5t8.5 20.5t20.5 8.5h189v2284h-189q-12 0 -20.5 8.5t-8.5 20.5t8.5 20.5t20.5 8.5h247z" />
    <glyph glyph-name="parenleft.v7" horiz-adv-x="875" 
d="M823 -1224q0 -8 -6.5 -14.5t-14.5 -6.5q-6 0 -12 4q-133 101 -250.5 299t-190 451t-72.5 491v500q0 238 72.5 491t190 451t250.5 299q6 4 12 4q8 0 14.5 -6.5t6.5 -14.5q0 -11 -9 -17q-124 -93 -224.5 -291.5t-155.5 -440t-55 -475.5v-500q0 -234 55 -475.5t155.5 -440
t224.5 -291.5q9 -6 9 -17z" />
    <glyph glyph-name="parenright.v7" horiz-adv-x="875" 
d="M598 0q0 -238 -72.5 -491t-190 -451t-250.5 -299q-6 -4 -12 -4q-8 0 -14.5 6.5t-6.5 14.5q0 11 9 17q124 93 224.5 291.5t155.5 440t55 475.5v500q0 234 -55 475.5t-155.5 440t-224.5 291.5q-9 6 -9 17q0 8 6.5 14.5t14.5 6.5q6 0 12 -4q133 -101 250.5 -299t190 -451
t72.5 -491v-500z" />
    <glyph glyph-name="uni239D" horiz-adv-x="875" 
d="M823 21q0 -9 -6.5 -15t-14.5 -6q-6 0 -12 4q-133 100 -250.5 298.5t-190 451.5t-72.5 491v250h102v-250q0 -234 55 -476t155.5 -440t224.5 -292q9 -5 9 -16z" />
    <glyph glyph-name="uni239C" horiz-adv-x="875" 
d="M379 0h-102v498h102v-498z" />
    <glyph glyph-name="uni239B" horiz-adv-x="875" 
d="M823 1474q0 -11 -9 -17q-124 -93 -224.5 -291.5t-155.5 -440t-55 -475.5v-250h-102v250q0 238 72.5 491t190 451t250.5 299q6 4 12 4q8 0 14.5 -6.5t6.5 -14.5z" />
    <glyph glyph-name="uni23A0" horiz-adv-x="875" 
d="M598 1245q0 -238 -72.5 -491t-190 -451.5t-250.5 -298.5q-6 -4 -12 -4q-8 0 -14.5 6t-6.5 15q0 11 9 16q124 94 224.5 292t155.5 440t55 476v250h102v-250z" />
    <glyph glyph-name="uni239F" horiz-adv-x="875" 
d="M598 498v-498h-102v498h102z" />
    <glyph glyph-name="uni239E" horiz-adv-x="875" 
d="M598 0h-102v250q0 234 -55 475.5t-155.5 440t-224.5 291.5q-9 6 -9 17q0 8 6.5 14.5t14.5 6.5q6 0 12 -4q133 -101 250.5 -299t190 -451t72.5 -491v-250z" />
    <glyph glyph-name="braceleft.v7" horiz-adv-x="902" 
d="M755 -1224q0 -10 -7.5 -18t-18.5 -8q-3 0 -9 2q-130 47 -225 154.5t-95 218.5v750q0 106 -67.5 210t-168.5 141q-17 5 -17 24t17 24q101 37 168.5 141t67.5 210v750q0 111 95 218.5t225 154.5q6 2 9 2q11 0 18.5 -8t7.5 -18q0 -19 -17 -24q-101 -37 -168.5 -133.5
t-67.5 -191.5v-750q0 -107 -76.5 -212t-188.5 -163q112 -58 188.5 -163t76.5 -212v-750q0 -95 67.5 -191.5t168.5 -133.5q17 -5 17 -24z" />
    <glyph glyph-name="braceright.v7" horiz-adv-x="902" 
d="M755 250q0 -19 -17 -24q-101 -37 -168.5 -141t-67.5 -210v-750q0 -111 -95 -218.5t-225 -154.5q-6 -2 -9 -2q-11 0 -18.5 8t-7.5 18q0 19 17 24q101 37 168.5 133.5t67.5 191.5v750q0 107 76.5 212t188.5 163q-112 58 -188.5 163t-76.5 212v750q0 95 -67.5 191.5
t-168.5 133.5q-17 5 -17 24q0 10 7.5 18t18.5 8q3 0 9 -2q130 -47 225 -154.5t95 -218.5v-750q0 -106 67.5 -210t168.5 -141q17 -5 17 -24z" />
    <glyph glyph-name="uni23A9" horiz-adv-x="902" 
d="M755 26q0 -10 -7.5 -18t-18.5 -8q-3 0 -9 2q-130 47 -225 154.5t-95 218.5v375h102v-375q0 -95 67.5 -191.5t168.5 -133.5q17 -5 17 -24z" />
    <glyph glyph-name="braceleft.ex" horiz-adv-x="902" 
d="M502 0h-102v748h102v-748z" />
    <glyph glyph-name="uni23A8" horiz-adv-x="902" 
d="M502 1500v-375q0 -107 -76.5 -212t-188.5 -163q112 -58 188.5 -163t76.5 -212v-375h-102v375q0 106 -67.5 210t-168.5 141q-17 5 -17 24t17 24q101 37 168.5 141t67.5 210v375h102z" />
    <glyph glyph-name="uni23A7" horiz-adv-x="902" 
d="M755 724q0 -19 -17 -24q-101 -37 -168.5 -133.5t-67.5 -191.5v-375h-102v375q0 111 95 218.5t225 154.5q6 2 9 2q11 0 18.5 -8t7.5 -18z" />
    <glyph glyph-name="uni23AD" horiz-adv-x="902" 
d="M502 375q0 -111 -95 -218.5t-225 -154.5q-6 -2 -9 -2q-11 0 -18.5 8t-7.5 18q0 19 17 24q101 37 168.5 133.5t67.5 191.5v375h102v-375z" />
    <glyph glyph-name="braceright.ex" horiz-adv-x="902" 
d="M502 0h-102v748h102v-748z" />
    <glyph glyph-name="uni23AC" horiz-adv-x="902" 
d="M755 750q0 -19 -17 -24q-101 -37 -168.5 -141t-67.5 -210v-375h-102v375q0 107 76.5 212t188.5 163q-112 58 -188.5 163t-76.5 212v375h102v-375q0 -106 67.5 -210t168.5 -141q17 -5 17 -24z" />
    <glyph glyph-name="uni23AB" horiz-adv-x="902" 
d="M502 0h-102v375q0 95 -67.5 191.5t-168.5 133.5q-17 5 -17 24q0 10 7.5 18t18.5 8q3 0 9 -2q130 -47 225 -154.5t95 -218.5v-375z" />
    <glyph glyph-name="bracketleft.v7" horiz-adv-x="667" 
d="M647 -1220q0 -13 -8.5 -21.5t-21.5 -8.5h-296v3000h296q13 0 21.5 -8.5t8.5 -21.5t-8.5 -21.5t-21.5 -8.5h-236v-2880h236q13 0 21.5 -8.5t8.5 -21.5z" />
    <glyph glyph-name="bracketright.v7" horiz-adv-x="667" 
d="M346 -1250h-296q-13 0 -21.5 8.5t-8.5 21.5t8.5 21.5t21.5 8.5h236v2880h-236q-13 0 -21.5 8.5t-8.5 21.5t8.5 21.5t21.5 8.5h296v-3000z" />
    <glyph glyph-name="uni23A3" horiz-adv-x="667" 
d="M647 30q0 -13 -8.5 -21.5t-21.5 -8.5h-296v1500h60v-1440h236q13 0 21.5 -8.5t8.5 -21.5z" />
    <glyph glyph-name="uni23A2" horiz-adv-x="667" 
d="M381 0h-60v1000h60v-1000z" />
    <glyph glyph-name="uni23A1" horiz-adv-x="667" 
d="M647 1470q0 -13 -8.5 -21.5t-21.5 -8.5h-236v-1440h-60v1500h296q13 0 21.5 -8.5t8.5 -21.5z" />
    <glyph glyph-name="uni23A6" horiz-adv-x="667" 
d="M346 0h-296q-13 0 -21.5 8.5t-8.5 21.5t8.5 21.5t21.5 8.5h236v1440h60v-1500z" />
    <glyph glyph-name="uni23A5" horiz-adv-x="667" 
d="M346 1000v-1000h-60v1000h60z" />
    <glyph glyph-name="uni23A4" horiz-adv-x="667" 
d="M346 0h-60v1440h-236q-13 0 -21.5 8.5t-8.5 21.5t8.5 21.5t21.5 8.5h296v-1500z" />
    <glyph glyph-name="slash.v1" horiz-adv-x="617" 
d="M561 883q0 -5 -1 -8l-461 -1266q-5 -14 -21 -14q-9 0 -15.5 6.5t-6.5 15.5q0 5 1 8l461 1266q5 14 21 14q9 0 15.5 -6.5t6.5 -15.5z" />
    <glyph glyph-name="backslash.v1" horiz-adv-x="617" 
d="M561 -383q0 -9 -6.5 -15.5t-15.5 -6.5q-16 0 -21 14l-461 1266q-1 3 -1 8q0 9 6.5 15.5t15.5 6.5q16 0 21 -14l461 -1266q1 -3 1 -8z" />
    <glyph glyph-name="divides.v1" 
d="M161 -329q0 -9 -6.5 -15.5t-15.5 -6.5t-15.5 6.5t-6.5 15.5v1158q0 9 6.5 15.5t15.5 6.5t15.5 -6.5t6.5 -15.5v-1158z" />
    <glyph glyph-name="slash.v2" horiz-adv-x="768" 
d="M713 1084q0 -3 -2 -9l-607 -1667q-5 -16 -23 -16q-10 0 -17 7t-7 17q0 6 1 9l607 1667q5 16 23 16q10 0 17.5 -7t7.5 -17z" />
    <glyph glyph-name="backslash.v2" horiz-adv-x="768" 
d="M711 -584q0 -10 -7 -17t-17 -7q-18 0 -23 16l-607 1667q-2 6 -2 9q0 10 7.5 17t17.5 7q18 0 23 -16l607 -1667q1 -3 1 -9z" />
    <glyph glyph-name="divides.v2" 
d="M164 -448q0 -10 -7 -17t-18 -7t-17.5 7t-6.5 17v1396q0 10 6.5 17t17.5 7t18 -7t7 -17v-1396z" />
    <glyph glyph-name="slash.v3" horiz-adv-x="964" 
d="M909 1348q0 -4 -2 -10l-799 -2195q-7 -17 -25 -17q-11 0 -18.5 7.5t-7.5 18.5q0 7 1 10l799 2195q7 17 25 17q11 0 19 -7.5t8 -18.5z" />
    <glyph glyph-name="backslash.v3" horiz-adv-x="964" 
d="M908 -848q0 -11 -8 -18.5t-19 -7.5q-18 0 -25 17l-799 2195q-1 3 -1 10q0 11 7.5 18.5t18.5 7.5q18 0 25 -17l799 -2195q2 -6 2 -10z" />
    <glyph glyph-name="divides.v3" 
d="M166 -591q0 -11 -8 -18.5t-19 -7.5t-18.5 7.5t-7.5 18.5v1682q0 11 7.5 18.5t18.5 7.5t19 -7.5t8 -18.5v-1682z" />
    <glyph glyph-name="slash.v4" horiz-adv-x="1222" 
d="M1166 1692q0 -4 -2 -10l-1050 -2885q-7 -19 -28 -19q-13 0 -21.5 8.5t-8.5 21.5q0 4 2 10l1050 2885q7 19 28 19q13 0 21.5 -8.5t8.5 -21.5z" />
    <glyph glyph-name="backslash.v4" horiz-adv-x="1222" 
d="M1166 -1192q0 -13 -8.5 -21.5t-21.5 -8.5q-21 0 -28 19l-1050 2885q-2 6 -2 10q0 13 8.5 21.5t21.5 8.5q21 0 28 -19l1050 -2885q2 -6 2 -10z" />
    <glyph glyph-name="divides.v4" 
d="M169 -762q0 -13 -8.5 -21.5t-21.5 -8.5t-21.5 8.5t-8.5 21.5v2024q0 13 8.5 21.5t21.5 8.5t21.5 -8.5t8.5 -21.5v-2024z" />
    <glyph glyph-name="slash.v5" horiz-adv-x="1557" 
d="M1502 2146q0 -3 -2 -11l-1380 -3793q-9 -21 -31 -21q-13 0 -22.5 9.5t-9.5 23.5q0 7 1 11l1380 3793q9 21 31 21q13 0 23 -9.5t10 -23.5z" />
    <glyph glyph-name="backslash.v5" horiz-adv-x="1557" 
d="M1501 -1646q0 -14 -9.5 -23.5t-23.5 -9.5q-22 0 -31 21l-1380 3793q-1 4 -1 11q0 14 9.5 23.5t22.5 9.5q22 0 31 -21l1380 -3793q2 -8 2 -11z" />
    <glyph glyph-name="divides.v5" 
d="M172 -969q0 -13 -9.5 -22.5t-23.5 -9.5q-13 0 -22.5 9.5t-9.5 22.5v2438q0 13 9.5 22.5t22.5 9.5q14 0 23.5 -9.5t9.5 -22.5v-2438z" />
    <glyph glyph-name="slash.v6" horiz-adv-x="1997" 
d="M1941 2741q0 -6 -2 -12l-1813 -4982q-9 -24 -34 -24q-15 0 -25.5 10.5t-10.5 25.5q0 6 2 12l1813 4982q9 24 34 24q15 0 25.5 -10.5t10.5 -25.5z" />
    <glyph glyph-name="backslash.v6" horiz-adv-x="1997" 
d="M1941 -2241q0 -15 -10.5 -25.5t-25.5 -10.5q-25 0 -34 24l-1813 4982q-2 6 -2 12q0 15 10.5 25.5t25.5 10.5q25 0 34 -24l1813 -4982q2 -6 2 -12z" />
    <glyph glyph-name="divides.v6" 
d="M175 -1216q0 -15 -10.5 -25.5t-25.5 -10.5t-25.5 10.5t-10.5 25.5v2932q0 15 10.5 25.5t25.5 10.5t25.5 -10.5t10.5 -25.5v-2932z" />
    <glyph glyph-name="slash.v7" horiz-adv-x="2572" 
d="M2517 3521q0 -8 -3 -14l-2381 -6541q-9 -26 -37 -26q-16 0 -27.5 11t-11.5 28q0 10 2 14l2381 6541q9 26 37 26q17 0 28.5 -11.5t11.5 -27.5z" />
    <glyph glyph-name="backslash.v7" horiz-adv-x="2572" 
d="M2515 -3021q0 -17 -11.5 -28t-27.5 -11q-28 0 -37 26l-2381 6541q-3 6 -3 14q0 16 11.5 27.5t28.5 11.5q28 0 37 -26l2381 -6541q2 -4 2 -14z" />
    <glyph glyph-name="divides.v7" 
d="M179 -1514q0 -16 -12 -27.5t-28 -11.5t-27.5 11.5t-11.5 27.5v3528q0 16 11.5 27.5t27.5 11.5t28 -11.5t12 -27.5v-3528z" />
    <glyph glyph-name="divides.bt" 
d="M179 39q0 -16 -12 -27.5t-28 -11.5t-27.5 11.5t-11.5 27.5v1163h78z" />
    <glyph glyph-name="divides.ex" 
d="M179 0h-79v1202h78z" />
    <glyph glyph-name="divides.tp" 
d="M179 0h-79v1163q0 16 11.5 27.5t27.5 11.5t28 -11.5t12 -27.5v-1163z" />
    <glyph glyph-name="equal.lft" horiz-adv-x="222" 
d="M222 327h-202q-8 0 -14 6t-6 14t6 14t14 6h202v-40zM222 133h-202q-8 0 -14 6t-6 14t6 14t14 6h202v-40z" />
    <glyph glyph-name="equal.ex" horiz-adv-x="222" 
d="M222 367v-40h-222v40h222zM222 173v-40h-222v40h222z" />
    <glyph glyph-name="equal.rt" horiz-adv-x="222" 
d="M222 347q0 -8 -6 -14t-14 -6h-202v40h202q8 0 14 -6t6 -14zM222 153q0 -8 -6 -14t-14 -6h-202v40h202q8 0 14 -6t6 -14z" />
  </font>
</defs>
</svg>
